한국어
팝업 이미지
일정 기간 이 창 안뛰우기
팝업 이미지
일정 기간 이 창 안뛰우기
 

추천 시리즈

FHD영상 UHD영상 HD영상

Fired_Up_2009_1080p_BluRay_x265_HEVC_10bit_AAC_5.1_Qman_UTR_.torrent 토렌트 정보
마그넷
magnet:?xt=urn:btih:ddebdf311051a63a1f6dd6902bec2e7bea485e71
파일
Hash : ba9LAGu58PD1VnvoLB6u
[한글] 파이어드 업! Fired Up! (2009) (1080p BluRay x265 HEVC 10bit AAC 5.1 Qman) [UTR].torrent



Media Information 

Media Information

Code:

General 
Format : Matroska 
Format version : Version 4 / Version 2 
File size : 3.55 GiB 
Duration : 1 h 30 min 
Overall bit rate : 5 591 kb/s 
Movie name : Fired Up! 
Encoded date : UTC 2018-01-10 19:48:09 
Writing application : mkvmerge v19.0.0 (Brave Captain) 64-bit 
Writing library : libebml v1.3.5 + libmatroska v1.4.8 

Video 
ID : 1 
Format : HEVC 
Format/Info : High Efficiency Video Coding 
Format profile : [email protected] 
Codec ID : V_MPEGH/ISO/HEVC 
Duration : 1 h 30 min 
Bit rate : 5 058 kb/s 
Width : 1 920 pixels 
Height : 800 pixels 
Display aspect ratio : 2.40:1 
Frame rate mode : Constant 
Frame rate : 23.976 (24000/1001) FPS 
Color space : YUV 
Chroma subsampling : 4:2:0 
Bit depth : 10 bits 
Bits/(Pixel*Frame) : 0.137 
Stream size : 3.21 GiB (90%) 
Writing library : x265 2.6+26-b4edf9b44d23:[Windows][MSVC 1900][64 bit] 10bit 

Audio #1 
ID : 2 
Format : AAC 
Format/Info : Advanced Audio Codec 
Format profile : LC 
Codec ID : A_AAC 
Duration : 1 h 30 min 
Bit rate : 316 kb/s 
Channel(s) : 6 channels 
Channel positions : Front: L C R, Side: L R, LFE 
Sampling rate : 48.0 kHz 
Frame rate : 46.875 FPS (1024 spf) 
Compression mode : Lossy 
Delay relative to video : 9 ms 
Stream size : 205 MiB (6%) 
Language : English 
Default : Yes 
Forced : No 

Audio #2 
ID : 3 
Format : AC-3 
Format/Info : Audio Coding 3 
Format profile : Dolby Digital 
Mode extension : CM (complete main) 
Format settings, Endianness : Big 
Codec ID : A_AC3 
Duration : 1 h 30 min 
Bit rate mode : Constant 
Bit rate : 192 kb/s 
Channel(s) : 2 channels 
Channel positions : Front: L R 
Sampling rate : 48.0 kHz 
Frame rate : 31.250 FPS (1536 spf) 
Bit depth : 16 bits 
Compression mode : Lossy 
Stream size : 125 MiB (3%) 
Title : Commentary 
Language : English 
Default : No 
Forced : No 

Subtitle 
ID : 4 
Format : PGS 
Muxing mode : zlib 
Codec ID : S_HDMV/PGS 
Codec ID/Info : Picture based subtitle format used on BDs/HD-DVDs 
Duration : 1 h 29 min 
Bit rate : 52.5 kb/s 
Count of elements : 3096 
Stream size : 33.8 MiB (1%) 
Language : English 
Default : Yes 
Forced : No 

숀과 닉은 제럴드 R. 포드 고등학교의 풋볼 스타다. 좋든 싫든 여름방학은 풋볼 캠프에 끌려가야 하는 상황. 그러나 혈기왕성한 두 남학생은 풋볼 캠프 대신에 해변가 모래밭에서 펼쳐지는 치어리더 캠프에 가기로 결정한다. 그런데 닉이 치어리더 단장인 칼리에게 빠져들고, 칼리는 닉에게 대회에서 승리할 독특한 안무를 부탁한다.



최신드라마 토렌트도 토렌트가가 입니다.
18사단 보다 빠르게, 밤의전쟁 보다 깔끔한 남자클럽 입니다.
먹튀정보 확인은 토토보안관에서!

좋은 자료에는 "좋아요!" / 광고, 불량 자료는 "별로에요"를 눌러주세요! 비회원도 가능!


좋은 자료에는 "좋아요!" / 광고, 불량 자료는 "별로에요"를 눌러주세요! 비회원도 가능!


List of Articles
번호 분류 제목 날짜 추천 수
공지 자막 자료실 모음 2017.02.16 0
인기 한국 탐정리턴즈... 토렌트 직공 file 2018.07.21 0
인기 기타 털리 Tully.2018.1080p.BluRay.x264-DRONES file 2018.07.21 0
인기 기타 속죄 The.Atoning.2017.1080p.BluRay.x264-GUACAMOLE file 2018.07.21 0
인기 한국 조작된 도시 Fabricated.City.2017.1080p.BluRay.x264-REGRET file 2018.07.21 0
인기 기타 Doom.Asylum.1987.1080p.BluRay.x264-SPOOKS file 2018.07.21 0
인기 기타 [한글] 당신은 몇번째인가요? Whats.Your.Number.2011.720p.BluRay.x264-x0r 토렌트하자 공유 file 2018.07.21 0
인기 기타 No.Mans.Island.2014.HUNGARIAN.1080p.AMZN.WEBRip.DDP2.0.x264-TrollHD 토렌트킴 퍼옴 file 2018.07.21 0
인기 기타 [무자막] 맘마미아 2 Mamma Mia 2 2018 720p HDCAM AC3-1XBET 토렌트가가 직공 file 2018.07.21 0
인기 기타 아서 왕과 원탁의 기사 King.Arthur.and.the.Knights.of.the.Round.Table.2017.1080p… 토렌트가가 직공 newfile 2018.07.22 0
인기 기타 [자체한글] 황제의 검신 The.Fate.of.Swordman.2018.720p.KOR.HDRip.AAC-PCHD 토렌트 직공 newfile 2018.07.22 0
25626 스릴러/범죄 [한글] 기프트 The.Gift.2000.BluRay.1080p.x265.10bit.AAC-highcal file 2018.01.13 0
25625 공포/호러 [한글] 직쏘 Jigsaw 2017 1080p WEB-DL x264 DD 5.1-M2Tv file 2018.01.13 0
25624 드라마/가족 [한글] 굿바이 크리스토퍼 로빈 Goodbye.Christopher.Robin.2017.LIMITED.720/1080p.BluRay.x264-DRONES+720/1080p.BluRay.H264.AAC-RARBG+1080p BRRip x264 AAC 5.1 - Hon3y+720/1080p.BRRip.MkvCage file 2018.01.13 0
25623 스릴러/범죄 [한글] 슈퍼 다크 타임즈 Super.Dark.Times.2017.720/.1080p.BluRay.H264.AAC-RARBG+720p BRRip 750 MB - iExTV+720p.BRRip.950MB.MkvCage file 2018.01.13 0
25622 액션/전쟁 [무] 특수부대 전랑2 Wolf.Warriors.2.2017.720p.BluRay.x264.DTS-CHD file 2018.01.12 0
25621 액션/전쟁 [영] 땡큐 포 유어 서비스 Thank.You.For.Your.Service.2017.720p/1080p.BluRay.x264-GECKOS file 2018.01.12 0
25620 액션/전쟁 [영] 땡큐 포 유어 서비스 Thank.You.for.Your.Service.2017.1080p.BluRay.x264.DTS-HD.MA.7.1-MT file 2018.01.12 0
25619 드라마/가족 [영] 프로페서 마스턴 & 더 원더우먼 Professor.Marston.And.The.Wonder.Women.2017.720p/1080p.BluRay.x264-DRONES file 2018.01.12 0
25618 액션/전쟁 [영] 땡큐 포 유어 서비스 Thank.You.For.Your.Service.2017.720p/1080p.BluRay.H264.AAC-RARBG file 2018.01.12 0
25617 드라마/가족 [영] 프로페서 마스턴 & 더 원더우먼 Professor.Marston.And.The.Wonder.Women.2017.720p/1080p.BluRay.H264.AAC-RARBG file 2018.01.12 0
25616 드라마/가족 [한글] 잉글리쉬 페이션트 The.English.Patient.1996.1080p.BluRay.x264.AAC.5.1-POOP file 2018.01.12 0
25615 공포/호러 [한글] 상태 개조 Altered States 1980 1080p Bluray x265 10bit Opus 5.1-FRANKeNCODE file 2018.01.12 0
25614 공포/호러 [한글] 캐빈 피버 2: 스프링 피버 Cabin Fever 2 Spring Fever 2009 1080p Bluray x265 10bit Opus 5.1-FRANKeNCODE file 2018.01.12 0
25613 공포/호러 [한글] 캐빈 피버 Cabin Fever 2002 1080p Bluray x265 10bit Opus 5.1-FRANKeNCODE file 2018.01.12 0
25612 코미디 [영] 잉그리드 고스 웨스트 Ingrid.Goes.West.2017.REPACK.720p.BluRay.x264-GECKOS file 2018.01.12 0
» 코미디 [한글] 파이어드 업! Fired Up! (2009) (1080p BluRay x265 HEVC 10bit AAC 5.1 Qman) [UTR] file 2018.01.12 0
25610 드라마/가족 [한글] 인사이더 The.Insider.1999.720p.BluRay.x264-HD4U [PublicHD] file 2018.01.12 0
25609 코미디 [무] 더 매그니피센트 세븐 데드리 신스 The.Magnificent.Seven.Deadly.Sins.1971.720p.BluRay.x264-x0r file 2018.01.12 0
25608 SF/판타지 [한글] 치티 치티 뱅 뱅 Chitty.Chitty.Bang.Bang.1968.720.BluRay.x264-x0r file 2018.01.12 0
25607 드라마/가족 [무] 체이싱 그레이트 Chasing Great 2016 1080p BRRip x264 AAC - Hon3y file 2018.01.12 0
목록
Board Pagination Prev 1 ... 251 252 253 254 255 256 257 258 259 260 261 262 263 264 265 ... 1539 Next
/ 1539
서버에 요청 중입니다. 잠시만 기다려 주십시오...